Firesign Theatre / Eat Or Be Eaten
Artist Firesign Theatre
Album Title: Eat Or Be Eaten
Album Cover:
Format CD
Released 00/00/1985
Label Mercury Records
Catalog No 826 452-2 M-1
Bar Code No 0 422-826452-2 7
Packaging Jewelcase
Tracks
1. Headball Classic (1:33)
2. Wimpy's Software (1:51)
3. Kamikaze Recall (0:53)
4. Entering Labyrinth (1:16)
5. Chi-Chi (0:19)
6. Johnny Piano (2:32)
7. The National Toilet (0:59)
8. Welcome To Barberia (1:58)
9. Shoplifters Market (1:05)
10. Neighborhood Survival Gunstore (1:58)
11. Getting In (1:39)
12. Bait And Switch (2:46)
13. Police Problems (2:28)
14. Dylan At The Met (0:45)
15. Art Snob (1:07)
16. Eat Or Be Eaten (3:21)
17. Tonto's Cowboy Bank (1:48)
18. Getting Out (3:32)
Date Acquired 01/01/1987
Personal Rating
Acquired from Roadrunner Records
Purchase Price 15.00

Notes

foobar2000 1.2.9 / Dynamic Range Meter 1.1.1
log date: 2015-01-04 02:53:16

--------------------------------------------------------------------------------
Analyzed: The Firesign Theatre / Eat or Be Eaten
--------------------------------------------------------------------------------

DR         Peak         RMS     Duration Track
--------------------------------------------------------------------------------
DR17     -10.71 dB   -36.60 dB      1:34 01-Headball Classic
DR19      -5.90 dB   -31.10 dB      1:52 02-Wimpy's Software
DR15     -13.03 dB   -31.81 dB      0:54 03-Kamikaze Recall
DR16     -15.03 dB   -35.18 dB      1:16 04-Entering Labyrinth
DR17      -5.82 dB   -30.65 dB      0:19 05-Chi-Chi
DR18     -12.41 dB   -35.19 dB      2:32 06-Johnny Piano
DR16     -13.87 dB   -33.10 dB      0:59 07-The National Toilet
DR18     -11.37 dB   -33.42 dB      1:58 08-Welcome to Barberia
DR15     -13.69 dB   -32.48 dB      1:05 09-Shoplifters Market
DR16     -11.84 dB   -32.41 dB      1:59 10-Neighborhood Survival Gunstore
DR13      -0.41 dB   -20.98 dB      1:40 11-Getting In
DR18      -9.85 dB   -32.79 dB      2:46 12-Bait and Switch
DR17     -13.12 dB   -34.95 dB      2:28 13-Police Problems
DR16     -15.19 dB   -36.79 dB      0:46 14-Dylan at the Met
DR17     -16.29 dB   -37.89 dB      1:08 15-Art Snob
DR17      -6.49 dB   -30.71 dB      3:21 16-Eat or Be Eaten
DR17      -9.36 dB   -30.53 dB      1:49 17-Tonto's Cowboy Bank
DR16      -9.80 dB   -32.66 dB      3:33 18-Getting Out
--------------------------------------------------------------------------------

Number of tracks:  18
Official DR value: DR16

Samplerate:        44100 Hz
Channels:          2
Bits per sample:   16
Bitrate:           494 kbps
Codec:             FLAC
================================================================================

Reviews
No reviews but it's pretty fun -aa
Cover 1
Cover 2
Cover 3
Cover 4
Cover 5
Cover 6